App Review: RockPlayer, o player definitivo

Posted: 16/11/2010 by Luis Henrique in Review
Etiquetas:, , , , ,

Uma que muito me agrada nos smartphones é mobilidade no entretenimento, possibilitando que você acesse a internet, jogue seus jogos, ouça suas músicas e assista seus vídeos de qualquer lugar e utilizando apenas um aparelho, mas o que acontece é que muitas vezes os formatos suportados nativamente por esses aparelhos são limitados a 2 ou  3 formatos o que nos força a realizar conversões para podermos portar videos e músicas para o aparelho, eis que apresento o rockplayer um player que roda praticamente todos os formatos.

Oficialmente o sistema Android aceita nativamente os formatos MP3, Ogg, Mp4 e 3gp fazendo-se necessário a conversão mas com o rockplayer isso pode ser resolvido pois segundo os criadores ele possui suporte aos formatos avi, mkv, rmvb, mp4, mov, wmv, asf, wma, wav, mpg, ts, mpa, dvd, au, mp3, mid, ivf, aiff, ogm, ogg, cda, flic, d2v, aac, roq, flac, drc, dsm, swf,  AAC, AC3, DTS, FLV4, LPCM, ALAW, ULAW, MPEG Audio, MPEG-1, MPEG-2, MPEG-3.

Pessoalmente eu já testei os formatos .AVI, .rmvb, .mkv (os mais populares para download na internet ) e rodaram legal, outra funcionalidade bacana é o suporte a legendas no formato .srt (também o mais popular na internet), para isto assim como é feito no pc o arquivo .srt deve possuir o mesmo nome do arquivo de vídeo e estar na mesma pasta, o programa possui 2 modos de execução o “System Mode” e o “Normal Mode“, a sacada é quando for executar algum arquivo que possui suporte nativo utilize o system mode, assim o vídeo roda mais “fluído” e economiza processamento e quando for rodar algum formato que o sistema não oferece suporte nativo utilize o modo Normal mode(este modo realiza o decode utilizando as bibliotecas internas do programa e conseqüentemente irá consumir mais processamento e bateria), lembre-se mantenha o bom senso, rodar um arquivo .mkv de 1Gb exige muito do aparelho e provavelmente irá travar com 5 segundos de execução(o maior arquivo que assisti foi um episódio de Supernatural de 350Mb, rodou perfeito, mas no meio do episódio pude sentir uma pequena queda no framerate mas nada muito significativo) outa dica é setar o modo de encode da legenda para ISO-8859-1 assim, todos os caracteres da legenda serão reconhecidos corretamente inclusive acentos agudos e palavras com til.

No site do fabricante é possível realizar  o download do programa otimizado para o processador do seu aparelho, eu utilizo a versão universal(funciona com qualquer processador), hoje além das screenshots upei um vídeo no youtube para demonstrar a app, o vídeo esta com um slowdown mas isso ocorre devido ao programa que usei pra gravar, gostaria de ressaltar que em execução a legenda e o áudio estão em perfeita sincronia e ao fim do post tenho a mediaInfo que extrai do vídeo utilizando o media player classic.

Download rockplayer universal

Download rockplayer otimizado para o ARMv6 (processador do Galaxy5)

MediaInfo:

General

Complete name                    : E:\TBBT\S04E08\the.big.bang.theory.s04e08.hdtv.xvid-fqm.avi
Format                           : AVI
Format/Info                      : Audio Video Interleave
File size                        : 175 MiB
Duration                         : 18mn 51s
Overall bit rate                 : 1 299 Kbps
Writing application              : transcode-1.0.4

Video
ID                               : 0
Format                           : MPEG-4 Visual
Format profile                   : Advanced Simple@L5
Format settings, BVOP            : Yes
Format settings, QPel            : No
Format settings, GMC             : No warppoints
Format settings, Matrix          : Default (H.263)
Codec ID                         : XVID
Codec ID/Hint                    : XviD
Duration                         : 18mn 51s
Bit rate                         : 1 126 Kbps
Width                            : 624 pixels
Height                           : 352 pixels
Display aspect ratio             : 16:9
Frame rate                       : 23.976 fps
Color space                      : YUV
Chroma subsampling               : 4:2:0
Bit depth                        : 8 bits
Scan type                        : Progressive
Bits/(Pixel*Frame)               : 0.214
Stream size                      : 152 MiB (87%)
Writing library                  : XviD 1.2.1 (UTC 2008-12-04)

Audio
ID                               : 1
Format                           : MPEG Audio
Format version                   : Version 1
Format profile                   : Layer 3
Codec ID                         : 55
Codec ID/Hint                    : MP3
Duration                         : 18mn 51s
Bit rate mode                    : Variable
Bit rate                         : 128 Kbps
Channel(s)                       : 2 channels
Sampling rate                    : 48.0 KHz
Bit depth                        : 16 bits
Stream size                      : 21.6 MiB (12%)
Alignment                        : Aligned on interleaves
Interleave, duration             : 24 ms (0.58 video frame)
Anúncios
Comentários
  1. Moisés diz:

    Esta versão é trial, demo ou full ?

    Grato

    • Luis Henrique diz:

      A versão postada é a versão full do programa, aliás todos os programas postados aqui são grátis, nenhum foi crakeado ou comprado e feito backup

  2. Waltinho diz:

    Esse programa parece ser muito Util, Muito mesmo !
    rsrs
    Quando chega meu galaxy. vo tentar instalar !

Deixe uma Resposta

Preencha os seus detalhes abaixo ou clique num ícone para iniciar sessão:

Logótipo da WordPress.com

Está a comentar usando a sua conta WordPress.com Terminar Sessão / Alterar )

Imagem do Twitter

Está a comentar usando a sua conta Twitter Terminar Sessão / Alterar )

Facebook photo

Está a comentar usando a sua conta Facebook Terminar Sessão / Alterar )

Google+ photo

Está a comentar usando a sua conta Google+ Terminar Sessão / Alterar )

Connecting to %s